> 少女时代日本第三次巡回演唱会2014【37.9G】1080P蓝光原盘
关键词 : 少女时代
启程ID : 0000738
大小 : 37.9G
创建时间 : 2019-09-12
价格 : 6 元
启程ID
0000738
文件大小
37.9G
百度网盘下载
提取码
c3i1
文件解压密码
少女时代日本第三次巡回演唱会2014【37.9G】1080P蓝光原盘 视频截图
















少女时代日本第三次巡回演唱会2014【37.9G】1080P蓝光原盘 视频剧情截图
少女时代日本第三次巡回演唱会2014【37.9G】1080P蓝光原盘 演唱会曲目介绍
0000738.qc525.com 少女时代日本第三次巡回演唱会2014【37.9G】1080P蓝光原盘

演唱会曲目

1. motorcycle
2. Gossip Girls
3. GALAXY SUPERNOVA
4. FLOWER POWER
6. you-aholic
7. Karma Butterfly
8. THE GREAT ESCAPE
10. LIPS
11. My oh My
12. DO THE CATWALK
14. リンガ フランカ
15. Europa
16. Girls Peace
18. Time Machine
19. Not Alone
21. ALL MY LOVE IS FOR YOU
23. GENIE
24. PAPARAZZI
25. Mr.Mr.
27. BEEP BEEP
28. FLYERS
29. Gee
30. LOVE GIRLS
32. Everyday Love
34. MR.TAXI
35. I GOT A BOY
36. blue jeans
38. Stay Girls
启程ID
0000738
文件大小
37.9G
百度网盘下载
提取码
c3i1
文件解压密码
少女时代日本第三次巡回演唱会2014【37.9G】1080P蓝光原盘 演唱会视频参数信息
演唱会参数信息

DISC INFO:

Disc Title:     0000738.qc525.com 少女时代日本第三次巡回演唱会2014【37.9G】1080P蓝光原盘
Disc Size:      40,729,001,160 bytes
Protection:     AACS
BD-Java:        No
BDInfo:         0.5.8

PLAYLIST REPORT:

Name:                   00010.MPLS
Length:                 2:49:57.187 (h:m:s.ms)
Size:                   0 bytes
Total Bitrate:          0.00 Mbps

VIDEO:

Codec                   Bitrate             Description     
-----                   -------             -----------     
MPEG-4 AVC Video        0 kbps              1080i / 29.970 fps / 16:9 / High Profile 4.1

AUDIO:

Codec                           Language        Bitrate         Description     
-----                           --------        -------         -----------     
LPCM Audio                      Miscellaneous languages2304 kbps       2.0 / 48 kHz / 2304 kbps / 24-bit
DTS-HD Master Audio             Miscellaneous languages0 kbps          5.1 / 48 kHz / 24-bit (DTS Core: 5.1 / 48 kHz / 1509 kbps / 24-bit)

FILES:

Name            Time In         Length          Size            Total Bitrate   
----            -------         ------          ----            -------------   
00101.M2TS      0:00:00.000     1:23:00.709     0               0               
00102.M2TS      1:23:00.709     1:03:41.083     0               0               
00103.M2TS      2:26:41.793     0:13:18.797     0               0               
00104.M2TS      2:40:00.591     0:09:56.595     0               0               
为您推荐 少女时代 相关的演唱会视频
启程ID
0000738
文件大小
37.9G
百度网盘下载
提取码
c3i1
文件解压密码
精选启程演唱会下载 www.qc525.com
联系微信 : liwula2017
邮箱 : 429408384#qq.com
湘ICP备16007316号
最新天气预报