> 吴雨霏<Kary On Live 2011 震撼红馆舞台>香港演唱会2011【30.2】1080P蓝光原盘
关键词 : 吴雨霏
启程ID : 0000737
大小 : 30.2G
创建时间 : 2019-09-12
价格 : 6 元
启程ID
0000737
文件大小
30.2G
百度网盘下载
提取码
c6sh
文件解压密码
吴雨霏<Kary On Live 2011 震撼红馆舞台>香港演唱会2011【30.2】1080P蓝光原盘 视频截图












吴雨霏<Kary On Live 2011 震撼红馆舞台>香港演唱会2011【30.2】1080P蓝光原盘 视频剧情截图
吴雨霏<Kary On Live 2011 震撼红馆舞台>香港演唱会2011【30.2】1080P蓝光原盘 演唱会曲目介绍
0000737.qc525.com 吴雨霏 Kary On Live 2011 震撼红馆舞台 香港演唱会2011【30.2】1080P蓝光原盘

演唱会曲目

01. 我话事
02. 耳王十四一心
03. 一击即中
04. Here We Are
05. 分手要狠
06. 明知做戏
07. 暂借问
08. 我傻女
09. 不是校花
10. 派对动物
11. Control
12. Love More
13. 肌肤之亲
14. 红组加油
15. 杀她死 吴雨霏(With Ping Pung)
16. 潮爆 吴雨霏(With Ping Pung)
17. 逼得太紧
18. 绝配
19. 最后一秒钟
20. 爱是最大权利
21. 二十世纪少年
22. 座右铭
23. 爱你变成恨你
启程ID
0000737
文件大小
30.2G
百度网盘下载
提取码
c6sh
文件解压密码
吴雨霏<Kary On Live 2011 震撼红馆舞台>香港演唱会2011【30.2】1080P蓝光原盘 演唱会视频参数信息
演唱会参数信息

DISC INFO:

Disc Title:     0000737.qc525.com 吴雨霏 Kary On Live 2011 震撼红馆舞台 香港演唱会2011【30.2】1080P蓝光原盘
Disc Size:      32,529,025,637 bytes
Protection:     AACS
BD-Java:        No
BDInfo:         0.5.8

PLAYLIST REPORT:

Name:                   00001.MPLS
Length:                 1:40:07.451 (h:m:s.ms)
Size:                   0 bytes
Total Bitrate:          0.00 Mbps

VIDEO:

Codec                   Bitrate             Description     
-----                   -------             -----------     
MPEG-4 AVC Video        0 kbps              1080i / 29.970 fps / 16:9 / High Profile 4.1

AUDIO:

Codec                           Language        Bitrate         Description     
-----                           --------        -------         -----------     
LPCM Audio                      Chinese         6912 kbps       5.1 / 48 kHz / 6912 kbps / 24-bit
DTS-HD Master Audio             Chinese         0 kbps          5.1 / 48 kHz / 24-bit (DTS Core: 5.1 / 48 kHz / 1509 kbps / 24-bit)
Dolby Digital Audio             Chinese         640 kbps        5.1 / 48 kHz / 640 kbps
Dolby Digital Audio             Chinese         384 kbps        2.0 / 48 kHz / 384 kbps

SUBTITLES:

Codec                           Language        Bitrate         Description     
-----                           --------        -------         -----------     
Presentation Graphics           Chinese         0.000 kbps                      
Presentation Graphics           Chinese         0.000 kbps                      

FILES:

Name            Time In         Length          Size            Total Bitrate   
----            -------         ------          ----            -------------   
00003.M2TS      0:00:00.000     0:47:15.833     0               0               
00004.M2TS      0:47:15.833     0:52:44.861     0               0               
00009.M2TS      1:40:00.694     0:00:06.005     0               0               
00008.M2TS      1:40:06.700     0:00:00.750     0               0               
为您推荐 吴雨霏 相关的演唱会视频
启程ID
0000737
文件大小
30.2G
百度网盘下载
提取码
c6sh
文件解压密码
精选启程演唱会下载 www.qc525.com
联系微信 : tao18074625335
邮箱 : 448263541#qq.com
湘ICP备16007316号
最新天气预报