> 早安家族<Hello Project Countdown Party Good Bye Hello>日本演唱会2016【90G】1080P蓝光原盘
关键词 : 早安家族,早安少女组,Berryz工房,℃-ute
启程ID : 0000719
大小 : 90G
创建时间 : 2019-08-23
价格 : 6 元
启程ID
0000719
文件大小
90G
百度网盘下载
提取码
5evb
文件解压密码
早安家族<Hello Project Countdown Party Good Bye Hello>日本演唱会2016【90G】1080P蓝光原盘 视频截图












早安家族<Hello Project Countdown Party Good Bye Hello>日本演唱会2016【90G】1080P蓝光原盘 视频剧情截图
早安家族<Hello Project Countdown Party Good Bye Hello>日本演唱会2016【90G】1080P蓝光原盘 演唱会曲目介绍
0000719.qc525.com 早安家族 Hello Project Countdown Party Good Bye Hello 日本演唱会2016【90G】1080P蓝光原盘

演唱会曲目

D.1 

 OPENING~MC 
 KEEP ON 上昇志向! !  Juice=Juice 
 カラダだけが大人になったんじゃない Juice=Juice 
 MC 
 Dream Road~心が躍り出してる~ Juice=Juice 
 Goal~明日はあっちだよ~ Juice=Juice 
 生まれたてのBaby Love Juice=Juice 
 Magic of Love (J=J 2015ver.) Juice=Juice 
 MC 
 うるわしのカメリア つばきファクトリー 
 気高く咲き誇れ!  つばきファクトリー 
 MC 
 青春まんまんなか!  つばきファクトリー 
 独り占め つばきファクトリー 
 バッチ来い青春!  こぶしファクトリー 
 MC 
 チョット愚直に! 猪突猛進 こぶしファクトリー 
 押忍! こぶし魂 こぶしファクトリー 
 サンバ! こぶしジャネイロ こぶしファクトリー 
 MC 
 ランラルン~あなたに夢中~ カントリー ガールズ 
 MC 
 恋はマグネット カントリー ガールズ 
 ブギウギLOVE カントリー ガールズ 
 どーだっていいの カントリー ガールズ 
 MC 
 涙のリクエスト カントリー ガールズ 
 MC 
 ロマンティック 浮かれモード 藤本美貴 
 セクシーキャットの演説 モーニング娘。'16 
 Tokyoという片隅 モーニング娘。'16 
 ムキダシで向き合って モーニング娘。'16 
 Password is 0 モーニング娘。'16 
 MC 
 The Vision モーニング娘。'16 
 君の代わりは居やしない モーニング娘。'16 
 そうじゃない モーニング娘。'16 
 泡沫サタデーナイト!  モーニング娘。'16 
 MC 
 愛の軍団 モーニング娘。'16 
 わがまま 気のまま 愛のジョーク モーニング娘。'16 
 ドッカ~ン カプリッチオ モーニング娘。'16 
 What is LOVE  モーニング娘。'16 
 MC 
 夢幻クライマックス ℃-ute 
 人生はSTEP!  ℃-ute 
 MC 
 Singing~あの頃のように~ ℃-ute 
 Summer Wind ℃-ute 
 何故 人は争うんだろう  ℃-ute 
 愛はまるで静電気 ℃-ute 
 MC 
 アイアンハート ℃-ute 
 世界一HAPPYな女の子 全員 
 MC 
 次々続々 アンジュルム 
 愛のため今日まで進化してきた人間 愛のためすべて退化してきた人間 アンジュルム 
 MC 
 糸島Distance アンジュルム 
 恋ならとっくに始まってる アンジュルム 
 忘れてあげる アンジュルム 
 上手く言えない アンジュルム 
 MC 
 同じ時給で働く友達の美人ママ アンジュルム 
 私、ちょいとカワイイ裏番長 アンジュルム 
 スキちゃん アンジュルム 
 MC 
 大器晩成 アンジュルム

D.2

 OPENING~MC 
 彼女になりたいっ! ! !  譜久村聖 和田彩花 竹内朱莉 勝田里奈 室田瑞希 金澤朋子 高木紗友希 宮本佳林 植村あかり 山木梨沙 山岸理子 小片リサ 
 丸い太陽 -winter ver.- 中西香菜 宮崎由加 山岸理子 小片リサ 
 恋にBooing ブー! 和田彩花 中西香菜 竹内朱莉 勝田里奈 室田瑞希 
 MC 
 OH YEAH Lovelys 
 もしも    嗣永桃子 中島早貴 譜久村聖 和田彩花 
 桃色スパークリング 嗣永桃子 ℃-ute 
 MC 
 恋人は心の応援団 石川梨華 嗣永桃子 山木梨沙 
 恋をしちゃいました!  石川梨華 熊井友理奈 岡井千聖 
 MC 
 シャボン玉 石川梨華 譜久村聖 生田衣梨奈 飯窪春菜 石田亜佑美 
 ザ☆ピ~ス!  石川梨華 譜久村聖 生田衣梨奈 飯窪春菜 石田亜佑美 
 MC ~2017年カウントダウン~ 
 かっちょ良い歌 全員 
 MC 
 Kiss! Kiss! Kiss! Buono! 
 MC 
 ソラシド~ねえねえ~ Buono! 
 Bravo☆Bravo Buono! 
 MY BOY Buono! 
 MC 
 -Winter Story- Buono! 
 恋愛ライダー Buono! 
 如雨露 Juice=Juice 
 アレコレしたい!  Juice=Juice 
 MC 
 明日やろうはバカやろう Juice=Juice 
 イジワルしないで 抱きしめてよ Juice=Juice 
 Wonderful World Juice=Juice 
 MC 
 OPENING 
 男と女とForever ℃-ute 
 羨んじゃう ℃-ute 
 MC 
 夜風のMessage ℃-ute 
 Crazy 完全な大人 ℃-ute 
 アダムとイブのジレンマ ℃-ute 
 デジタリック→0(LOVE) ℃-ute 
 MC 
 Kiss me 愛してる ℃-ute 
 情熱エクスタシー ℃-ute 
 Danceでバコーン!  ℃-ute 
 MC ~ENDING 全員
启程ID
0000719
文件大小
90G
百度网盘下载
提取码
5evb
文件解压密码
早安家族<Hello Project Countdown Party Good Bye Hello>日本演唱会2016【90G】1080P蓝光原盘 演唱会视频参数信息
演唱会参数信息

DISC INFO:

Disc Title:     0000719.qc525.com 早安家族 Hello Project Countdown Party Good Bye Hello 日本演唱会2016【90G】1080P蓝光原盘
Disc Size:      47,927,671,756 bytes
Protection:     AACS
BD-Java:        No
BDInfo:         0.5.8

PLAYLIST REPORT:

Name:                   00000.MPLS
Length:                 4:21:03.848 (h:m:s.ms)
Size:                   0 bytes
Total Bitrate:          0.00 Mbps

VIDEO:

Codec                   Bitrate             Description     
-----                   -------             -----------     
MPEG-4 AVC Video        0 kbps              1080i / 29.970 fps / 16:9 / High Profile 4.1

AUDIO:

Codec                           Language        Bitrate         Description     
-----                           --------        -------         -----------     
LPCM Audio                      Japanese        2304 kbps       2.0 / 48 kHz / 2304 kbps / 24-bit

FILES:

Name            Time In         Length          Size            Total Bitrate   
----            -------         ------          ----            -------------   
00004.M2TS      0:00:00.000     1:52:24.471     0               0               
00005.M2TS      1:52:24.471     2:28:38.876     0               0               
00007.M2TS      4:21:03.347     0:00:00.500     0               0               
为您推荐 早安家族,早安少女组,Berryz工房,℃-ute 相关的演唱会视频
启程ID
0000719
文件大小
90G
百度网盘下载
提取码
5evb
文件解压密码
精选启程演唱会下载 www.qc525.com
联系微信 : liwula2017
邮箱 : 429408384#qq.com
湘ICP备16007316号
最新天气预报