> 高歌女孩<Girls Aloud Out Of Control Live From The O2>伦敦演唱会2009【23.2G】1080P蓝光原盘
关键词 : 高歌女孩,GirlsAloud
启程ID : 0000700
大小 : 23.2G
创建时间 : 2019-08-14
价格 : 6 元
启程ID
0000700
文件大小
23.2G
百度网盘下载
提取码
axpk
文件解压密码
高歌女孩<Girls Aloud Out Of Control Live From The O2>伦敦演唱会2009【23.2G】1080P蓝光原盘 视频截图














高歌女孩<Girls Aloud Out Of Control Live From The O2>伦敦演唱会2009【23.2G】1080P蓝光原盘 视频剧情截图
高歌女孩<Girls Aloud Out Of Control Live From The O2>伦敦演唱会2009【23.2G】1080P蓝光原盘 演唱会曲目介绍
0000700.qc525.com 高歌女孩 Girls Aloud Out Of Control Live From The O2 伦敦演唱会2009【23.2G】1080P蓝光原盘

演唱会曲目

01. The Promise 
02. Love Is The Key 
03. Biology 2009 
04. Miss You Bow Wow 
05. The Loving Kind 
06. Waiting 
07. Love Machine 
08. Rolling Back The Rivers In Time 
09. Untouchable 
10. Sexy! No No No
11. Broken Strings 
12. Love Is Pain 
13. Call The Shots 
14. Revolution In The Head 
15. Sound Of The Underground 
16. Fix Me Up 
17. Womanizer 
18. Something Kinda Ooooh 
19. Girls Aloud Out Of Control Medley
启程ID
0000700
文件大小
23.2G
百度网盘下载
提取码
axpk
文件解压密码
高歌女孩<Girls Aloud Out Of Control Live From The O2>伦敦演唱会2009【23.2G】1080P蓝光原盘 演唱会视频参数信息
演唱会参数信息

DISC INFO:

Disc Title:     0000700.qc525.com 高歌女孩 Girls Aloud Out Of Control Live From The O2 伦敦演唱会2009【23.2G】1080P蓝光原盘
Disc Size:      24,916,721,984 bytes
Protection:     AACS
BD-Java:        No
Extras:         50Hz Content
BDInfo:         0.5.8

PLAYLIST REPORT:

Name:                   00012.MPLS
Length:                 1:33:22.920 (h:m:s.ms)
Size:                   0 bytes
Total Bitrate:          0.00 Mbps

VIDEO:

Codec                   Bitrate             Description     
-----                   -------             -----------     
MPEG-4 AVC Video        0 kbps              1080i / 25 fps / 16:9 / High Profile 4.1

AUDIO:

Codec                           Language        Bitrate         Description     
-----                           --------        -------         -----------     
LPCM Audio                      English         1536 kbps       2.0 / 48 kHz / 1536 kbps / 16-bit
DTS-HD Master Audio             English         0 kbps          5.1 / 48 kHz / 16-bit (DTS Core: 5.1 / 48 kHz / 768 kbps / 16-bit)

FILES:

Name            Time In         Length          Size            Total Bitrate   
----            -------         ------          ----            -------------   
00015.M2TS      0:00:00.000     1:31:42.320     0               0               
00003.M2TS      1:31:42.320     0:01:40.000     0               0               
00000.M2TS      1:33:22.320     0:00:00.600     0               0               
为您推荐 高歌女孩,GirlsAloud 相关的演唱会视频
启程ID
0000700
文件大小
23.2G
百度网盘下载
提取码
axpk
文件解压密码
精选启程演唱会下载 www.qc525.com
联系微信 : liwula2017
邮箱 : 429408384#qq.com
湘ICP备16007316号
最新天气预报