> SHINee<Visual Music by SHINee>首张日单MV精选合集2016【63.4G】1080P蓝光原盘
关键词 : SHINee,李珍基,金钟铉,金基范,崔珉豪,李泰民
启程ID : 0000404
大小 : 63.4G
创建时间 : 2017-06-19
价格 : 6 元
启程ID
0000404
文件大小
63.4G
百度网盘下载
提取码
mr36
文件解压密码
SHINee<Visual Music by SHINee>首张日单MV精选合集2016【63.4G】1080P蓝光原盘 视频截图






























SHINee<Visual Music by SHINee>首张日单MV精选合集2016【63.4G】1080P蓝光原盘 视频剧情截图
SHINee<Visual Music by SHINee>首张日单MV精选合集2016【63.4G】1080P蓝光原盘 演唱会曲目介绍
演唱会曲目介绍:

Blu-ray DISC1

Music Video
Replay -君は僕のeverything- Music Video
JULIETTE Music Video
LUCIFER Music Video
Sherlock [Japanese ver.] Music Video
Dazzling Girl Music Video
1000年、ずっとそばにいて??? Music Video [Directors Cut ver.]
Fire Music Video
Boys Meet U Music Video
Breaking News Music Video
3 2 1 Music Video
Everybody [Japanese ver.] Music Video
LUCKY STAR Music Video
Downtown Baby Music Video
Your Number Music Video
Sing Your Song Music Video
View [Japanese ver.] Music Video
D×D×D Music Video
君のせいで Music Video
Music Video Another Ver.
Replay -君は僕のeverything- Dance Music Video
JULIETTE Dance Music Video [Type A]
JULIETTE Dance Music Video [Type B]
LUCIFER Dance Music Video [Type A]
LUCIFER Dance Music Video [Type B]
Sherlock Dance Music Video
Dazzling Girl Dance Music Video
1000年、ずっとそばにいて??? Music Video [Complete ver.]
Fire Music Video [Lip-Synch ver.]
Breaking News Dance Music Video
Everybody Dance Music Video
Downtown Baby Dance Music Video
Your Number Dance Music Video [black]
Your Number Dance Music Video [white]

Blu-ray DISC2

Music Video Making
Replay -君は僕のeverything- Music Video Shooting Sketch
JULIETTE Music Video Shooting Sketch
LUCIFER Music Video Shooting Sketch
Sherlock [Japanese ver.] Jacket & Music Video Shooting Sketch
Dazzling Girl Jacket & Music Video Shooting Sketch
1000年、ずっとそばにいて??? Jacket & Music Video Shooting Sketch
Fire Jacket & Music Video Shooting Sketch
Boys Meet U Jacket & Music Video Shooting Sketch
Breaking News Music Video Shooting Sketch
3 2 1 Jacket & Music Video Shooting Sketch
Everybody [Japanese ver.] Music Video Shooting Sketch
LUCKY STAR Jacket & Music Video Shooting Sketch
Downtown Baby Music Video Shooting Sketch
Your Number Jacket & Music Video Shooting Sketch
Sing Your Song Jacket & Music Video Shooting Sketch
View [Japanese ver.] Music Video Shooting Sketch
D×D×D Jacket & Music Video Shooting Sketch

デビュー時レセプション映像

SHINee JAPAN DEBUT PREMIUM RECEPTION DIGEST MOVIE in LONDON
SHINee JAPAN DEBUT PREMIUM RECEPTION DIGEST MOVIE in JAPAN
启程ID
0000404
文件大小
63.4G
百度网盘下载
提取码
mr36
文件解压密码
SHINee<Visual Music by SHINee>首张日单MV精选合集2016【63.4G】1080P蓝光原盘 演唱会视频参数信息
演唱会参数信息

DISC INFO:

Disc Title:     lgych-00278 SHINee Visual Music by SHINee 首张日单MV精选合集2016【63.4G】1080P蓝光原盘
Disc Size:      36,464,211,000 bytes
Protection:     AACS
BD-Java:        No
BDInfo:         0.5.8

PLAYLIST REPORT:

Name:                   00000.MPLS
Length:                 2:19:07.572 (h:m:s.ms)
Size:                   0 bytes
Total Bitrate:          0.00 Mbps

VIDEO:

Codec                   Bitrate             Description     
-----                   -------             -----------     
MPEG-4 AVC Video        0 kbps              1080i / 29.970 fps / 16:9 / High Profile 4.1

AUDIO:

Codec                           Language        Bitrate         Description     
-----                           --------        -------         -----------     
LPCM Audio                      Japanese        2304 kbps       2.0 / 48 kHz / 2304 kbps / 24-bit

FILES:

Name            Time In         Length          Size            Total Bitrate   
----            -------         ------          ----            -------------   
00000.M2TS      0:00:00.000     0:03:35.748     0               0               
00001.M2TS      0:03:35.748     0:03:30.543     0               0               
00002.M2TS      0:07:06.292     0:04:16.089     0               0               
00003.M2TS      0:11:22.381     0:04:30.470     0               0               
为您推荐 SHINee,李珍基,金钟铉,金基范,崔珉豪,李泰民 相关的演唱会视频
启程ID
0000404
文件大小
63.4G
百度网盘下载
提取码
mr36
文件解压密码
精选启程演唱会下载 www.qc525.com
联系微信 : liwula2017
邮箱 : 429408384#qq.com
湘ICP备16007316号
最新天气预报