> T-ARA组合 Single Complete BEST Music Clips Queen of Pops MV精选【35.9G】1080P蓝光原盘
关键词 : T-ara,Tara
启程ID : 0000132
大小 : 35.9G
创建时间 : 2017-04-01
价格 : 6 元
启程ID
0000132
文件大小
35.9G
百度网盘下载
提取码
见解压密码
文件解压密码
T-ARA组合 Single Complete BEST Music Clips Queen of Pops MV精选【35.9G】1080P蓝光原盘 视频截图












T-ARA组合 Single Complete BEST Music Clips Queen of Pops MV精选【35.9G】1080P蓝光原盘 视频剧情截图
T-ARA组合 Single Complete BEST Music Clips Queen of Pops MV精选【35.9G】1080P蓝光原盘 演唱会曲目介绍
演唱会曲目介绍

Music Clips:
01. Bo Peep Bo Peep (Japanese Ver.)
02. Yayaya (Japanese Ver.)
03. Roly-Poly (Japanese Ver.)
04. Lies (Japanese Ver.)
05. Lovey-Dovey (Japanese Ver.)
06. Sexy Love (Japanese Ver.)
07. Day By Day (Japanese Ver.)
08. Bunny Style!
09. Target
10. Memories~The guidance you gave me~
11. Number Nine ( Japanese Ver.)
12. Lead The Way
13. What Should I Do(Japanese Ver.)
14. QBS / Like The Wind

Music Clips Other ver.:
01. yayaya (Japanese ver.) Dance feature ver.
02. yayaya (Japanese ver.) Short ver.
03. Roly-Poly (Japanese ver.) Dance feature ver.
04. Sexy Love (Japanese ver.) Dance ver.
05. Memories~The guidance you gave me~ Making ver.
06. Lead the way Music Video Lip ver.

Music Clips Making:
01 .yayaya (Japanese ver.) (Making)
02. Roly-Poly (Japanese ver.) (Making)
03. Sexy Love (Making)
04. Bunny Style! (Making)
05. Lead the way (Making)

Special Contents:
01. SHIBUYA VISION – Bo Peep Bo Peep ver. –
02. SHIBUYA VISION – Roly-Poly ver. –
03. SHIBUYA VISION – Lovey-Dovey ver. –
04. SHIBUYA VISION – Sexy Love ver. –
05. SHIBUYA VISION – TREASURE BOX ver. –
06. TV-SPOT collection (CM broadcast that was on TV)
07. SPECIAL COMENT collection
启程ID
0000132
文件大小
35.9G
百度网盘下载
提取码
见解压密码
文件解压密码
T-ARA组合 Single Complete BEST Music Clips Queen of Pops MV精选【35.9G】1080P蓝光原盘 演唱会视频参数信息

演唱会参数信息

DISC INFO:

Disc Title:    T-ARA - PV精选集.T-ARA组合 Single Complete BEST Music Clips Queen of Pops MV精选【35.9G】1080P蓝光原盘
Disc Size:      38,549,104,584 bytes
Protection:     AACS
BD-Java:        No
BDInfo:         0.5.8

PLAYLIST REPORT:

Name:                   00001.MPLS
Length:                 2:25:45.203 (h:m:s.ms)
Size:                   38,191,257,600 bytes
Total Bitrate:          34.94 Mbps

VIDEO:

Codec                   Bitrate             Description     
-----                   -------             -----------     
MPEG-4 AVC Video        31051 kbps          1080i / 29.970 fps / 16:9 / High Profile 4.1

AUDIO:

Codec                           Language        Bitrate         Description     
-----                           --------        -------         -----------     
LPCM Audio                      Japanese        2304 kbps       2.0 / 48 kHz / 2304 kbps / 24-bit

FILES:

Name            Time In         Length          Size            Total Bitrate   
----            -------         ------          ----            -------------   
00002.M2TS      0:00:00.000     0:04:04.243     1,064,878,080   34,879         
00006.M2TS      0:04:04.243     0:04:19.292     1,130,207,232   34,871         
00017.M2TS      0:08:23.536     0:04:35.775     1,202,294,784   34,877         
00003.M2TS      0:12:59.311     0:17:05.024     4,469,225,472   34,881         
00004.M2TS      0:30:04.335     0:15:21.420     4,017,389,568   34,880         
00005.M2TS      0:45:25.756     0:12:41.794     3,321,630,720   34,882         
00018.M2TS      0:58:07.550     0:03:31.177     920,684,544     34,878         
00019.M2TS      1:01:38.728     0:03:46.225     986,025,984     34,869         
00020.M2TS      1:05:24.954     0:03:39.519     957,069,312     34,879         
00007.M2TS      1:09:04.473     0:14:12.518     3,717,107,712   34,881         
00008.M2TS      1:23:16.991     0:13:13.526     3,459,710,976   34,879         
00009.M2TS      1:36:30.517     0:09:35.574     2,509,412,352   34,879         
00010.M2TS      1:46:06.092     0:10:14.613     2,679,392,256   34,876         
00011.M2TS      1:56:20.706     0:15:26.759     4,040,988,672   34,883         
00012.M2TS      2:11:47.466     0:13:48.727     3,682,062,336   35,544         
00013.M2TS      2:25:36.194     0:00:09.009     33,177,600      29,462         

为您推荐 T-ara,Tara 相关的演唱会视频
启程ID
0000132
文件大小
35.9G
百度网盘下载
提取码
见解压密码
文件解压密码
精选启程演唱会下载 www.qc525.com
联系微信 : tao18074625335
邮箱 : 448263541#qq.com
湘ICP备16007316号
最新天气预报